&title=[宴] Garakuta Doll Play
&artist=t+pazolite
&wholebpm=256
&demo_seek=75.4
&demo_len=16.2
&lv_7=宴
&inote_7=(256.0){1},7/2q4[1:1],,
{1}7/2q4[1:1],
{8},,,,4,5,4,5,
{1}7/2q4[1:1],
{2},4/5,
{1}7/2q4[1:1],
{4},,2/5,3/4w8[1:1],
{1}4,
{4},,4/7,6/5w1[1:1],
{1}5,
{4},,2/5,3/4z8[2:1],
{4}4,,,6/5s1[2:1],
{4}5,,,3/4-8[8:1],
{4}4,6/5-1[8:1],5,3/4,
{4}4h[8:1]/5h[8:1],3h[8:1]/6h[8:1],1h[8:1]/8h[8:1],7/2-5[8:1],
{4}7-4[8:1],3-8[8:1],6-2[8:1],1^4[8:1]*^6[8:1],
{8},,3/7,3/7,3/7,,2/7-4[8:1],,
{4}2-5[8:1],6-1[8:1],3-8[8:1],7-3[8:1],
{4}2V46[4:1]*V48[4:1],,,2/7-4[8:1],
{4}2-5[8:1],6-1[8:1],3-7[8:1],8^3[8:1]*^5[8:1],
{8},,2/6,2/6,2/6,,7/2-5[8:1],,
{4}7-4[8:1],3-8[8:1],6-1[8:1],2-6[8:1],
{4}7V51[4:1]*V53[4:1],,,2V41[2:1]/7V58[2:1],
{4},,,8^3[8:1]*^5[8:1],
{8},,2/6,2/6,2/6,,7/2-5[8:1],,
{4}7-4[8:1],3-8[8:1],6-1[8:1],2-6[8:1],
{4}7V51[4:1]*V53[4:1],,,7/2-5[8:1],
{4}7-4[8:1],3-8[8:1],6-2[8:1],1^4[8:1]*^6[8:1],
{8},,3/7,3/7,3/7,,7/2h[1:1],,
{8}3,3,8,8,4,4,7,7h[8:7],
{8}6,6,1,1,5,5,2-8[8:1],,
{4}4-6[8:1],3-7[8:1],4-8[8:1],1h[4:1],
{16}5^8[8:1],,,,1,2,3,4,5,,,,3/7-1[8:1],,,,
{4}5-3[8:1],6-2[8:1],5-1[8:1],8h[4:1],
{4}4-1[8:1],5-8[8:1],4,5/2-8[8:1],
{4}4-6[8:1],3-7[8:1],4-8[8:1],1h[4:1],
{4}5v7[4:1]*V38[4:1],,,4/3h[8:3],
{4}7h[8:3],8h[8:3],6h[8:3],5h[8:3],
{4}1h[8:3],2h[4:1],6,3/7-1[8:1],
{4}5-3[8:1],6-2[8:1],5-1[8:1],8h[4:1],
{16}4^1[8:1],,,,8,7,6,5,4,,,,6/2-8[8:1],,,,
{4}4-6[8:1],3-7[8:1],4-8[8:1],1h[4:1],
{4}5-8[8:1],4-1[8:1],5,4/7-1[8:1],
{4}5-3[8:1],6-2[8:1],5-1[8:1],4-6[8:1],
{4}2-8[8:1],3-7[8:1],1-5[8:1],8,
{8}1h[4:1]/8h[4:1],,,1/8,,4^1[8:3]/5^8[8:3],,,
{2},2b/7b,
{8}6h[8:3],,,5h[8:3],,,4,,
{4},4/5,3/6,4/5,
{8}3h[8:3],,,4h[8:3],,,5,,
{4},3/6,4/5,3/6,
{16}4/8,,,,1/5,2,3,4,1/5,,,,4/8,7,6,5,
{16}4/8,,,,1/5,2,3,4,1/5,,,,4/8,7,6,5,
{16}4/8,,,,1/5,2,3,4,
{2}1pp4[4:3]/5pp8[4:3],{1},
{4}2-5[4:1]/7-2[4:1],,,1b/2b,
{8}2/4,,,5/7,,,3/6,,
{2}2b/7b,4/5,
{8}5/7,,,2/4,,,3/6,,
{8}2b/7b,,,,4/5,,
{12}3/6,
{995}5,,,,,,,,,,,,,,,,,,,,,,,,,,,,,,,,,,,,,,,,,,,,,,,,,,,,,,,,,,,,,,,,,,,,,,,,,,,,,,,,,,,
{12}4,
{12}3b,,,,,,4/5,,,3/6,
{995}4,,,,,,,,,,,,,,,,,,,,,,,,,,,,,,,,,,,,,,,,,,,,,,,,,,,,,,,,,,,,,,,,,,,,,,,,,,,,,,,,,,,
{12}5,
{4}6b,5/7,3,2/4,
{2}4h[8:3]/5h[8:3],1b/8b,
{8}5h[4:1]/1-4[8:1],,1,5h[4:1],1-6[8:1],,1/5h[4:1],,
{8}1^4[8:1],5,1/5,,5/1^6[8:1],,1/5,,
{8}5h[4:1]/1-4[8:1],,1,5h[4:1],1-6[8:1],,1/5h[4:1],,
{8}1^4[8:1],5,1/5,,5/1^6[8:1],,1/5,,
{8}5h[4:1]/1-4[8:1],,1,5h[4:1],1-6[8:1],,1/5h[4:1],,
{8}1^4[8:1],5,1/5,,5/1^6[8:1],,1/5,,
{8}5h[4:1]/1-4[8:1],,1,5h[4:1],1-6[8:1],,1/5,,
{1}1b/5b,
{8}4h[4:1]/8-5[8:1],,8,4h[4:1],8-3[8:1],,8/4h[4:1],,
{8}8^5[8:1],4,4/8,,4/8^3[8:1],,4/8,,
{8}4h[4:1]/8-5[8:1],,8,4h[4:1],8-3[8:1],,8/4h[4:1],,
{8}8^5[8:1],4,4/8,,4/8^3[8:1],,4/8,,
{8}4h[4:1]/8-5[8:1],,8,4h[4:1],8-3[8:1],,8/4h[4:1],,
{8}8^5[8:1],4,4/8,,4/8^3[8:1],4,4/8,4,
{8}5-7[8:1],5,4-2[8:1],4,8-6[8:1],8,1-3[8:1],1,
{8}5-8[8:1],5,4-1[8:1],4,5,,6,,
{1}4h[2:3]/7p5[1:1],,
{1}3h[2:3]/7p5[1:1],,
{1}2h[2:3]/7p5[1:1],,
{1}1h[2:3]/7p5[1:1],,
{4}4/5,5,5,5,
{4}5,5,5,5,
{4}4/5,4,4,4,
{4}4,4,4,4,
{4}3/6,6,6,6,
{4}2/7,2,2,2,
{4}1/8,8,2/7,2,
{4}2-6[8:1]/7-3[8:1],2/7,1b/8b,,
{4}3/8-5[8:1],3/8,3/4-1[8:1],3/4,
{8}2/8-5[8:1],,2/8-4[8:1],,2/8-6[8:1],,2/8,2,
{4}3/8-5[8:1],3/8,3/4-1[8:1],3/4,
{16}2/8-5[8:1],,,,2/8-4[8:1],,,,2/8-6[8:1],,,,2/8,,1,2,
{4}3/8-5[8:1],3/8,3/4-1[8:1],3/4,
{8}2/8-5[8:1],,2/8-4[8:1],,2/8-6[8:1],,8/2>1[8:3],2,
{4},,4/5,6/3-6[8:1],
{4}7-2[8:1],4-1[8:1],8-5[8:1],4b,
{4}6/1-4[8:1],1/6,6/5-8[8:1],5/6,
{8}7/1-4[8:1],,7/1-5[8:1],,7/1-3[8:1],,1/7,7,
{4}6/1-4[8:1],1/6,6/5-8[8:1],5/6,
{16}7/1-4[8:1],,,,7/1-5[8:1],,,,7/1-3[8:1],,7,,1,,8,7,
{4}6/1-4[8:1],1/6,6/5-8[8:1],5/6,
{4}7/1-4[8:1],7/1-5[8:1],7/1-3[8:1],1/7,
{8}1/8,1/8,1/8,1/8,1/8,1/8,1/8,1/8,
{4}1/8,4-1[8:1]/5-8[8:1],4/5,2b/7b,
{8}1-5[8:1],8,1,7-3[8:1],8,7,2-6[8:1],1,
{8}2,8-4[8:1],1,8,2-6[8:1],1,2/8,,
{8}8-4[8:1],1,8,2-6[8:1],1,2,7-3[8:1],8,
{8}7,1-5[8:1],8,1,7-3[8:1],8,1/7,,
{16}1-5[8:1],,8,,1,,7-3[8:1],8,,,7,,2-6[8:1],,1,,
{8}2,8-4[8:1],1,8,2-6[8:1],1,2/8,,
{8}8-4[8:1],1,8,2-6[8:1],1,2,7-3[8:1],8,
{8}7,1-5[8:1],8,1,7-3[8:1],8,1/7,,
{8}1-5[8:1],5,1,6-2[8:1],2,6,3-7[8:1],7,
{8}3,8-4[8:1],4,8,2-6[8:1],6,2/7,,
{8}8-4[8:1],4,8,3-7[8:1],7,3,6-2[8:1],2,
{8}6,1-5[8:1],5,1,7-3[8:1],3,2/7,,
{8}2-6[8:1],6,2,8-4[8:1],4,8,1,8,
{16}1/5,8,7,6,7,8,1,8,7,6,5,4,3,2,1,,
{8},1,2,3,8,7,6,5,
{1}4b,
{1}2/7,
E
